Sinister 2012 BRRip 720p [English_Latino]



A true-crime writer finds a cache of 8mm home movies films that suggest the murder he is currently researching is the work of a serial killer whose career dates back to the 1960s.
--------------------------------------------------------
Sinister se centra en un periodista que viaja con su familia alrededor del país para investigar terribles asesinatos que luego convierte en libros. Después de viajar hasta una casa donde otra familia fue asesinada, descubrirá una cinta donde se desvelan horribles pistas más allá de lo que causó la tragedia original.

Siniestro (2012)
*Audio English + Español Latino

General
Format                                   : Matroska
Format version                           : Version 2
File size                                : 1.26 GiB
Duration                                 : 1h 49mn
Overall bit rate                         : 1 640 Kbps
Encoded date                             : UTC 2014-09-29 22:38:21
Writing application                      : mkvmerge v7.2.0 (\'On Every Street\') 64bit built on Sep 13 2014 15:52:10
Writing library                          : libebml v1.3.0 + libmatroska v1.4.1
DURATION                                 : 00:00:19.500000000
NUMBER_OF_FRAMES                         : 1
NUMBER_OF_BYTES                          : 104
_STATISTICS_WRITING_APP                  : mkvmerge v7.2.0 (\'On Every Street\') 64bit built on Sep 13 2014 15:52:10
_STATISTICS_WRITING_DATE_UTC             : 2014-09-29 22:38:21
_STATISTICS_TAGS                         : BPS DURATION NUMBER_OF_FRAMES NUMBER_OF_BYTES
Video

ID                                       : 1
Format                                   : AVC
Format/Info                              : Advanced Video Codec
Format profile                           : High@L3.1
Format settings, CABAC                   : Yes
Format settings, ReFrames                : 4 frames
Codec ID                                 : V_MPEG4/ISO/AVC
Duration                                 : 1h 49mn
Bit rate                                 : 1 254 Kbps
Width                                    : 1 280 pixels
Height                                   : 536 pixels
Display aspect ratio                     : 2.40:1
Frame rate mode                          : Constant
Frame rate                               : 23.976 fps
Color space                              : YUV
Chroma subsampling                       : 4:2:0
Bit depth                                : 8 bits
Scan type                                : Progressive
Bits/(Pixel*Frame)                       : 0.076
Stream size                              : 960 MiB (75%)
Writing library                          : x264 core 142 r2479 dd79a61
Default                                  : Yes
Forced                                   : No
Audio #1
ID                                       : 2
Format                                   : AC-3
Format/Info                              : Audio Coding 3
Mode extension                           : CM (complete main)
Format settings, Endianness              : Big
Codec ID                                 : A_AC3
Duration                                 : 1h 49mn
Bit rate mode                            : Constant
Bit rate                                 : 192 Kbps
Channel(s)                               : 6 channels
Channel positions                        : Front: L C R, Side: L R, LFE
Sampling rate                            : 48.0 KHz
Bit depth                                : 16 bits
Compression mode                         : Lossy
Stream size                              : 151 MiB (12%)
Language                                 : English
Default                                  : Yes
Forced                                   : No
Audio #2
ID                                       : 3
Format                                   : AC-3
Format/Info                              : Audio Coding 3
Mode extension                           : CM (complete main)
Format settings, Endianness              : Big
Codec ID                                 : A_AC3
Duration                                 : 1h 49mn
Bit rate mode                            : Constant
Bit rate                                 : 192 Kbps
Channel(s)                               : 6 channels
Channel positions                        : Front: L C R, Side: L R, LFE
Sampling rate                            : 48.0 KHz
Bit depth                                : 16 bits
Compression mode                         : Lossy
Stream size                              : 151 MiB (12%)
Language                                 : Spanish
Default                                  : No
Forced                                   : No
Text
ID                                       : 4
Format                                   : UTF-8
Codec ID                                 : S_TEXT/UTF8
Codec ID/Info                            : UTF-8 Plain Text
Title                                    : Encoded By / Encodeado Por:  CALLIXTUS
Default                                  : Yes
Forced                                   : No



Comparte esta entrada

Sinister 2012 BRRip 720p [English_Latino]
Para poder comentar necesitas Registrarte. O ya tienes usuario?, Iniciar Sesión!
No hay comentarios. ¡Sé el primero!
Autor
Ver perfil de Callixtus Callixtus
Hombre Curioso Curioso  Seguir  Mensaje
0 115 4
Relacionados
Nuevo Mensaje
Para:
Titulo: