Legion Bdrip.m-1080p.Dual.AC3.Subtitulos forzados (2010)

Descargar Legion  Bdrip.m-1080p.Dual.AC3.Subtitulos forzados (2010) Pelicula gratis


Sinopsis
Dios ha perdido la fe en el ser humano, así que ha decidido enviar a su legión de ángeles a la Tierra para exterminar a la raza humana por segunda vez en la Historia. La única esperanza recae sobre un grupo de rebeldes escondidos en mitad del desierto, que recibirán la ayuda del mismísimo arcángel Miguel (Paul Bettany)... Ópera prima en la dirección de un veterano de los efectos especiales. (FILMAFFINITY) 
INFORMACION
Título original: Legion
Año: 2010 
Duración: 100 min.
País
Director: Scott Stewart
Guión: Peter Schink, Scott Stewart 
Musica: John Frizzell
Reparto: Paul Bettany, Dennis Quaid, Lucas Black, Tyrese Gibson, Adrianne Palicki, Kevin Durand, Jon Tenney, Willa Holland, Kate Walsh, Charles S. Dutton, Jeanette Miller, Cameron Harlow, Doug Jones, Josh Stamberg, Yancey Arias
Productora: Sony Pictures / Screen Gems / Bold Films
Género: Fantástico
Mediainfo:

Complete name : Legion.Bdrip.m-1080p.Dual.x.lagartish.mkv 
Format : Matroska 
File size : 5.56 GiB 
Duration : 1h 40mn 
Overall bit rate : 7 955 Kbps 
Movie name : Legion x lagartish 
Encoded date : UTC 2014-10-12 19:14:40 
Writing application : mkvmerge v4.8.0 (\'I Got The...\') creado el May 23 2011 22:30:05 
Writing library : libebml v1.2.0 + libmatroska v1.1.0 
Video
ID : 1 
Format : AVC 
Format/Info : Advanced Video Codec 
Format profile : High@L4.0 
Format settings, CABAC : Yes 
Format settings, ReFrames : 5 frames 
Codec ID : V_MPEG4/ISO/AVC 
Duration : 1h 40mn 
Bit rate : 6 901 Kbps 
Width : 1 920 pixels 
Height : 800 pixels 
Display aspect ratio : 2.40:1 
Frame rate : 23.976 fps 
Color space : YUV 
Chroma subsampling : 4:2:0 
Bit depth : 8 bits 
Scan type : Progressive 
Bits/(Pixel*Frame) : 0.187 
Stream size : 4.83 GiB (87%) 
Encoding settings : cabac=1 / ref=5 / deblock=1:-3:-3 / analyse=0x3:0x133 / me=umh / subme=10 / psy=1 / psy_rd=1.00:0.00 / mixed_ref=1 / me_range=80 / chroma_me=1 / trellis=2 / 8x8dct=1 / cqm=0 / deadzone=21,11 / fast_pskip=0 / chroma_qp_offset=-2 / threads=12 / lookahead_threads=1 / sliced_threads=0 / nr=0 / decimate=1 / interlaced=0 / bluray_compat=0 / constrained_intra=0 / bframes=6 / b_pyramid=2 / b_adapt=2 / b_bias=0 / direct=3 / weightb=1 / open_gop=0 / weightp=2 / keyint=240 / keyint_min=24 / scenecut=40 / intra_refresh=0 / rc_lookahead=120 / rc=crf / mbtree=1 / crf=19.5 / qcomp=0.52 / qpmin=0 / qpmax=69 / qpstep=4 / ip_ratio=1.38 / aq=1:1.00 
Language : English 
Color primaries : BT.709-5, BT.1361, IEC 61966-2-4, SMPTE RP177 
Transfer characteristics : BT.709-5, BT.1361 
Matrix coefficients : BT.709-5, BT.1361, IEC 61966-2-4 709, SMPTE RP177 
Audio #1
ID : 2 
Format : AC-3 
Format/Info : Audio Coding 3 
Mode extension : CM (complete main) 
Codec ID : A_AC3 
Duration : 1h 40mn 
Bit rate mode : Constant 
Bit rate : 448 Kbps 
Channel(s) : 6 channels 
Channel positions : Front: L C R, Side: L R, LFE 
Sampling rate : 48.0 KHz 
Bit depth : 16 bits 
Compression mode : Lossy 
Stream size : 321 MiB (6%) 
Language : Spanish 
Audio #2
ID : 3 
Format : AC-3 
Format/Info : Audio Coding 3 
Mode extension : CM (complete main) 
Codec ID : A_AC3 
Duration : 1h 40mn 
Bit rate mode : Constant 
Bit rate : 448 Kbps 
Channel(s) : 6 channels 
Channel positions : Front: L C R, Side: L R, LFE 
Sampling rate : 48.0 KHz 
Bit depth : 16 bits 
Compression mode : Lossy 
Stream size : 321 MiB (6%) 
Language : English 
Text #1
ID : 4 
Format : UTF-8 
Codec ID : S_TEXT/UTF8 
Codec ID/Info : UTF-8 Plain Text 
Title : Forzados 
Language : Spanish 
Text #2
ID : 5 
Format : UTF-8 
Codec ID : S_TEXT/UTF8 
Codec ID/Info : UTF-8 Plain Text 
Language : Spanish 
Text #3
ID : 6 
Format : VobSub 
Muxing mode : zlib 
Codec ID : S_VOBSUB 
Codec ID/Info : The same subtitle format used on DVDs 
Language : English 
Menu
00:00:00.000 : es:00:00:00.000 
00:00:16.433 : es:00:00:16.433 
00:01:13.782 : es:00:01:13.782 
00:08:13.702 : es:00:08:13.702 
00:11:57.050 : es:00:11:57.050 
00:13:00.863 : es:00:13:00.863 
00:14:25.823 : es:00:14:25.823 
00:15:12.203 : es:00:15:12.203 
00:15:44.152 : es:00:15:44.152 
00:16:26.068 : es:00:16:26.068 
00:17:45.064 : es:00:17:45.064 
00:19:18.616 : es:00:19:18.616 
00:22:01.028 : es:00:22:01.028 
00:24:53.992 : es:00:24:53.992 
00:25:53.719 : es:00:25:53.719 
00:27:46.832 : es:00:27:46.832 
00:29:06.912 : es:00:29:06.912 
00:30:22.029 : es:00:30:22.029 
00:33:07.819 : es:00:33:07.819 
00:34:29.317 : es:00:34:29.317 
00:35:04.227 : es:00:35:04.227 
00:36:10.668 : es:00:36:10.668 
00:36:50.792 : es:00:36:50.792 
00:37:37.630 : es:00:37:37.630 
00:38:18.463 : es:00:38:18.463 
00:39:24.362 : es:00:39:24.362 
00:39:46.884 : es:00:39:46.884 
00:41:58.182 : es:00:41:58.182 
00:42:30.965 : es:00:42:30.965 
00:43:38.074 : es:00:43:38.074 
00:45:51.082 : es:00:45:51.082 
00:47:09.702 : es:00:47:09.702 
00:48:58.519 : es:00:48:58.519 
00:50:14.094 : es:00:50:14.094 
00:53:38.966 : es:00:53:38.966 
00:54:12.833 : es:00:54:12.833 
00:56:05.362 : es:00:56:05.362 
00:57:39.665 : es:00:57:39.665 
00:59:06.918 : es:00:59:06.918 
01:01:53.752 : es:01:01:53.752 
01:04:48.176 : es:01:04:48.176 
01:06:24.189 : es:01:06:24.189 
01:08:19.846 : es:01:08:19.846 
01:09:03.473 : es:01:09:03.473 
01:09:23.159 : es:01:09:23.159 
01:09:43.971 : es:01:09:43.971 
01:11:47.386 : es:01:11:47.386 
01:12:14.747 : es:01:12:14.747 
01:13:32.700 : es:01:13:32.700 
01:15:07.962 : es:01:15:07.962 
01:16:43.265 : es:01:16:43.265 
01:18:40.925 : es:01:18:40.925 
01:20:13.851 : es:01:20:13.851 
01:22:08.215 : es:01:22:08.215 
01:23:13.238 : es:01:23:13.238 
01:25:04.975 : es:01:25:04.975 
01:27:24.614 : es:01:27:24.614 
01:28:47.364 : es:01:28:47.364 
01:30:35.597 : es:01:30:35.597 
01:31:13.093 : es:01:31:13.093 
01:32:02.434 : es:01:32:02.434 
Fuente de vídeo: Bluray
Contenedor: mkv
Codificacion: crf
Tamaño: 5.56 Gb
Tasa de Bits total 7955 kbps
Resolucion: 1920x800
Audio 1: AC3 448 kbps Español
Audio 2: AC3 448 kbps Ingles
Links: de 190 Mb y 1 de Mb 
Archivos de recuperacion: 4 rev
Subs: Español e Ingles completos y Forzados Español
Archivos intercambiables

 DlFree.fr, Uploaded.to, Oboom, Tusfiles y Uploadable
http://www.linkbucks.com/AQ1W4
http://www.linkbucks.com/AQ1XX

Comparte esta entrada

Descargar Legion Bdrip.m-1080p.Dual.AC3.Subtitulos forzados (2010) 1 link Gratis
Para poder comentar necesitas Registrarte. O ya tienes usuario?, Iniciar Sesión!
No hay comentarios. ¡Sé el primero!
Autor
Ver perfil de Dagmar Dagmar
Hombre Curioso Curioso  Seguir  Mensaje
0 16481 4
Nuevo Mensaje
Para:
Titulo: